[2015-04-16] Forest National,Brussels, Belgium 30,5 GB

Format: .m2ts Blue-Ray Video
Camera: Multicam 5 angles
Lenght: 1h 59mn 46s
Size: 30,5 GB
Lineage: all sources -> Sony Vegas Pro 13.0 (camera mix) -> .m2ts and .wav files -> multiAVCHD (authoring) -> BDEdit (menu fixing) -> Blu-ray
Mixed and authored by Ansem

GALLERY (Click Here)

System of a Down
Forest National / Vorst Nationaal
Brussels, Belgium
16th April 2015

cam close left – filmed with Panasonic Lumix ZS19 by Anidamaru
cam left – filmed with Panasonic HC-X920 by Ansem
cam close right – filmed with Panasonic HC-X920 by Cesarin
cam right – filmed with Panasonic HDC-TM700 by Reminho
cam center – filmed with unknown camera by MrJack’s friend
external audio (right) – recorded with Zoom H2 by System89
Includes audioMix of all audio sources with the volume of each one adjusted to make it sound better.

Shameless advertising:
Ansem – http://ansem.bplaced.net/
Anidamaru – http://www.soadbootlegs.cba.pl/
Reminho – http://www.reminho.bplaced.com/
Cesarin – https://www.youtube.com/user/cesarin321
System89 – https://soadnews.wordpress.com/soad-trading-page/

01. Wake Up the Souls – Part 1
02. Holy Mountains
03. Jet Pilot
04. Suite-Pee
05. Prison Song
06. U-Fig
07. Aerials
08. Soldier Side – Intro
09. B.Y.O.B.
10. I-E-A-I-A-I-O
11. Radio/Video
12. Bubbles
13. CUBErt
14. Hypnotize
15. Dreaming
16. Needles
17. Deer Dance
18. Wake Up the Souls – Part 2
19. P.L.U.C.K.
20. Sartarabad
21. Psycho
22. Chop Suey!
23. Lonely Day
24. Question!
25. Bounce
26. Kill Rock ‚n Roll
27. Marmalade
28. Lost in Hollywood
29. Spiders
30. Mr. Jack
31. Wake Up the Souls – Part 3
32. Science
33. Chic ‚N’ Stu
34. War?
35. Toxicity
36. Sugar

Video
Format                           : AVC
Format/Info                      : Advanced Video Codec
Format profile                   : High@L4.2
Duration                         : 1h 59mn
Bit rate mode                    : Variable
Bit rate                         : 24.3 Mbps
Maximum bit rate                 : 26.0 Mbps
Width                            : 1 920 pixels
Height                           : 1 080 pixels
Display aspect ratio             : 16:9
Frame rate                       : 50.000 fps
Color space                      : YUV
Chroma subsampling               : 4:2:0
Bit depth                        : 8 bits
Scan type                        : Progressive
Bits/(Pixel*Frame)               : 0.235
Stream size                      : 20.3 GiB (67%)

Audio #1
ID                               : 4352 (0x1100)
Menu ID                          : 1 (0x1)
Format                           : PCM
Format settings, Endianness      : Big
Format settings, Sign            : Signed
Muxing mode                      : Blu-ray
Codec ID                         : 128
Duration                         : 1h 59mn
Bit rate mode                    : Constant
Bit rate                         : 1 536 Kbps
Channel(s)                       : 2 channels
Channel positions                : Front: L R
Sampling rate                    : 48.0 KHz
Bit depth                        : 16 bits
Stream size                      : 1.29 GiB (4%)
Language                         : mix

Audio #2
ID                               : 4353 (0x1101)
Menu ID                          : 1 (0x1)
Format                           : PCM
Format settings, Endianness      : Big
Format settings, Sign            : Signed
Muxing mode                      : Blu-ray
Codec ID                         : 128
Duration                         : 1h 59mn
Bit rate mode                    : Constant
Bit rate                         : 1 536 Kbps
Channel(s)                       : 2 channels
Channel positions                : Front: L R
Sampling rate                    : 48.0 KHz
Bit depth                        : 16 bits
Stream size                      : 1.29 GiB (4%)
Language                         : ext

Audio #3
ID                               : 4354 (0x1102)
Menu ID                          : 1 (0x1)
Format                           : PCM
Format settings, Endianness      : Big
Format settings, Sign            : Signed
Muxing mode                      : Blu-ray
Codec ID                         : 128
Duration                         : 1h 59mn
Bit rate mode                    : Constant
Bit rate                         : 1 536 Kbps
Channel(s)                       : 2 channels
Channel positions                : Front: L R
Sampling rate                    : 48.0 KHz
Bit depth                        : 16 bits
Stream size                      : 1.29 GiB (4%)
Language                         : cam

Audio #4
ID                               : 4355 (0x1103)
Menu ID                          : 1 (0x1)
Format                           : PCM
Format settings, Endianness      : Big
Format settings, Sign            : Signed
Muxing mode                      : Blu-ray
Codec ID                         : 128
Duration                         : 1h 59mn
Bit rate mode                    : Constant
Bit rate                         : 1 536 Kbps
Channel(s)                       : 2 channels
Channel positions                : Front: L R
Sampling rate                    : 48.0 KHz
Bit depth                        : 16 bits
Stream size                      : 1.29 GiB (4%)
Language                         : cam

Audio #5
ID                               : 4356 (0x1104)
Menu ID                          : 1 (0x1)
Format                           : PCM
Format settings, Endianness      : Big
Format settings, Sign            : Signed
Muxing mode                      : Blu-ray
Codec ID                         : 128
Duration                         : 1h 59mn
Bit rate mode                    : Constant
Bit rate                         : 1 536 Kbps
Channel(s)                       : 2 channels
Channel positions                : Front: L R
Sampling rate                    : 48.0 KHz
Bit depth                        : 16 bits
Stream size                      : 1.29 GiB (4%)
Language                         : cam

Audio #6
ID                               : 4357 (0x1105)
Menu ID                          : 1 (0x1)
Format                           : PCM
Format settings, Endianness      : Big
Format settings, Sign            : Signed
Muxing mode                      : Blu-ray
Codec ID                         : 128
Duration                         : 1h 59mn
Bit rate mode                    : Constant
Bit rate                         : 1 536 Kbps
Channel(s)                       : 2 channels
Channel positions                : Front: L R
Sampling rate                    : 48.0 KHz
Bit depth                        : 16 bits
Stream size                      : 1.29 GiB (4%)
Language                         : cam

Audio #7
ID                               : 4358 (0x1106)
Menu ID                          : 1 (0x1)
Format                           : PCM
Format settings, Endianness      : Big
Format settings, Sign            : Signed
Muxing mode                      : Blu-ray
Codec ID                         : 128
Duration                         : 1h 59mn
Bit rate mode                    : Constant
Bit rate                         : 1 536 Kbps
Channel(s)                       : 2 channels
Channel positions                : Front: L R
Sampling rate                    : 48.0 KHz
Bit depth                        : 16 bits
Stream size                      : 1.29 GiB (4%)
Language                         : cam


 
%d bloggers like this: