[2013-08-13] Atlas Arena, Lodz, Poland 16,4 GB

CAmera: Handcam
Video: 1920×1080 [50p], Sony HDR-TD20VE 3D
Audio: Dolby Digital 5.1, Sony HDR-TD20VE 3D
Format: m2ts
Duration: 1h 28min 08sec
Taper: NomadSPG
Size: 16,4 GB

GALLERY (Click Here)

setlist:

01. AERIALS
02. SUITE-PEE (incomplete)
03. PRISON SONG
04. I-E-A-I-A-I-O
05. SOLDIER SIDE (intro)
06. B.Y.O.B.
07. DEER DANCE
08. RADIO/VIDEO
09. PEEPHOLE
10. HYPNOTIZE
11. NEEDLES
12. DDEVIL
13. LOST IN HOLLYWOOD
14. X
15. SUGGESTIONS
16. PSYCHO
17. CHOP SUEY!
18. LONELY DAY
19. QUESTION!
20. A.D.D.
21. HOLY MOUNTAINS (with extended intro)
22. SPIDERS
23. CIGARO (with intro)
24. TOXICITY
25. SUGAR

 

General
ID                             : 1 (0x1)
Complete name                  : SOAD_ATLAS_ARENA_2013_NMD.m2ts
Format                         : BDAV
Format/Info                    : Blu-ray Video
File size                      : 16.4 GiB
Duration                       : 1h 28mn
Overall bit rate mode          : Variable
Overall bit rate               : 26.7 Mbps
Maximum Overall bit rate       : 35.5 Mbps

Video
ID                             : 4113 (0x1011)
Menu ID                        : 1 (0x1)
Format                         : AVC
Format/Info                    : Advanced Video Codec
Format profile                 : High@L4.2
Format settings, CABAC         : Yes
Format settings, ReFrames      : 2 frames
Format settings, GOP           : M=1, N=12
Codec ID                       : 27
Duration                       : 1h 28mn
Bit rate mode                  : Variable
Bit rate                       : 25.2 Mbps
Maximum bit rate               : 26.0 Mbps
Width                          : 1 920 pixels
Height                         : 1 080 pixels
Display aspect ratio           : 16:9
Frame rate                     : 50.000 fps
Color space                    : YUV
Chroma subsampling             : 4:2:0
Bit depth                      : 8 bits
Scan type                      : Progressive
Bits/(Pixel*Frame)             : 0.243
Stream size                    : 15.5 GiB (94%)

Audio
ID                             : 4352 (0x1100)
Menu ID                        : 1 (0x1)
Format                         : AC-3
Format/Info                    : Audio Coding 3
Mode extension                 : CM (complete main)
Format settings, Endianness    : Big
Codec ID                       : 129
Duration                       : 1h 28mn
Bit rate mode                  : Constant
Bit rate                       : 448 Kbps
Channel(s)                     : 6 channels
Channel positions              : Front: L C R, Side: L R, LFE
Sampling rate                  : 48.0 KHz
Bit depth                      : 16 bits
Compression mode               : Lossy
Stream size                    : 282 MiB (2%)

Text
ID                             : 4608 (0x1200)
Menu ID                        : 1 (0x1)
Format                         : PGS
Codec ID                       : 144
Duration                       : 1h 28mn

Taper                   : NomadSPG


Skomentuj

Wprowadź swoje dane lub kliknij jedną z tych ikon, aby się zalogować:

Logo WordPress.com

Komentujesz korzystając z konta WordPress.com. Log Out / Zmień )

Zdjęcie z Twittera

Komentujesz korzystając z konta Twitter. Log Out / Zmień )

Facebook photo

Komentujesz korzystając z konta Facebook. Log Out / Zmień )

Google+ photo

Komentujesz korzystając z konta Google+. Log Out / Zmień )

Connecting to %s

 
%d blogerów lubi to: