[2011-09-18] RHCP – River Plate Stadium, Buenos Aires, AR [AMT] 6,28 GB

RED HOT CHILI PEPPERS
September 18, 2011
River Plate Stadium
Buenos Aires, Argentina

SETLIST:
Monarchy of Roses
Can’t Stop
Charlie
Otherside
Look Around
Dani California
Under the Bridge
Factory of Faith
Throw Away Your Television
The Adventures of Rain Dance Maggie
Right on Time
Blood Sugar Sex Magik
Higher Ground
Californication
By the Way
ENCORE BREAK
Chad & Mauro Solo
Dance Dance Dance
Parallel Universe
Give It Away
Final Jam

LENGHT: 101:48
SIZE:  6,28 GB

Video
ID                               : 4113 (0x1011)
Menu ID                          : 1 (0x1)
Format                           : AVC
Format/Info                      : Advanced Video Codec
Format profile                   : High@L4.0
Format settings, CABAC           : Yes
Format settings, ReFrames        : 2 frames
Format settings, GOP             : M=2, N=13
Codec ID                         : 27
Duration                         : 1h 41mn
Bit rate mode                    : Variable
Bit rate                         : 8 204 Kbps
Maximum bit rate                 : 10 000 Kbps
Width                            : 1 280 pixels
Height                           : 720 pixels
Display aspect ratio             : 16:9
Frame rate                       : 24.000 fps
Color space                      : YUV
Chroma subsampling               : 4:2:0
Bit depth                        : 8 bits
Scan type                        : Progressive
Bits/(Pixel*Frame)               : 0.371
Stream size                      : 5.83 GiB (93%)

Audio
ID                               : 4352 (0x1100)
Menu ID                          : 1 (0x1)
Format                           : MPEG Audio
Format version                   : Version 1
Format profile                   : Layer 3
Codec ID                         : 4
Duration                         : 1h 41mn
Bit rate mode                    : Constant
Bit rate                         : 192 Kbps
Channel(s)                       : 2 channels
Sampling rate                    : 44.1 KHz
Compression mode                 : Lossy
Stream size                      : 140 MiB (2%)
Writing library                  : LAME3.92
Encoding settings                : -m s -V 4 -q 2 -lowpass 18.7 -b 192

Multicam:
Leni – db.etree.org/leandrorhcp

Video Tapers:
FoxSmooth86, o0o0OwenWil0o0o, ascasa1, dncc20, ChisholmArgFreak, porrymdq, rzibecchi, RHCP6786, martin2285, SuperChechero, edupork41, brunorhcp88, donluis698, PabloAcenso

Notes:
Video quality is pretty good, I made the mix from the original raw HD videos I got from tapers – they’re not grabbed from YouTube. Audio is not that good since it’s from audience. I decided not to use the FM recording due to its low quality (online broadcast) and the DJ speaking over the music, but it’s still listeneable.




Skomentuj

Wprowadź swoje dane lub kliknij jedną z tych ikon, aby się zalogować:

Logo WordPress.com

Komentujesz korzystając z konta WordPress.com. Wyloguj / Zmień )

Zdjęcie z Twittera

Komentujesz korzystając z konta Twitter. Wyloguj / Zmień )

Facebook photo

Komentujesz korzystając z konta Facebook. Wyloguj / Zmień )

Google+ photo

Komentujesz korzystając z konta Google+. Wyloguj / Zmień )

Connecting to %s

 
%d blogerów lubi to: