[2011-06 -19] The Subways – Hurricane Festival 2,44 GB

The Subways

Hurricane Festival – Scheeßel 19th June 2011

Source : PRO
Region : PAL
Length : 70
Size : 2.44GB
Resolution : 720×576

Uploader : Johnky [liverecordings@gmail.com]

Website : http://www.live-recordings.net

01. Oh Yeah
02. Young for Eternity
03. Obsession
04. Alright
05. Mary
06. We Don’t Need Money to Have a Good Time
07. Shake! Shake!
08. I Won’t Let You Down
09. I Want to Hear What You Have Got to Say
10. Celebrity
11. Girls & Boys
12. Turnaround
13. With You
14. It’s a Party

CONTAINS MENU SCREENS

Video
Format                           : MPEG Video
Bit rate mode                    : Variable
Bit rate                         : 5 899 Kbps
Nominal bit rate                 : 8 000 Kbps
Width                            : 720 pixels
Height                           : 576 pixels
Display aspect ratio             : 16:9
Frame rate                       : 25.000 fps
Standard                         : PAL
Color space                      : YUV
Chroma subsampling               : 4:2:0
Bit depth                        : 8 bits
Scan type                        : Interlaced
Scan order                       : Top Field First
Compression mode                 : Lossy
Bits/(Pixel*Frame)               : 0.569
Stream size                      : 962 MiB (94%)

Audio
Format                           : MPEG Audio
Bit rate mode                    : Constant
Bit rate                         : 256 Kbps
Channel(s)                       : 2 channels
Sampling rate                    : 48.0 KHz
Compression mode                 : Lossy
Stream size                      : 41.7 MiB (4%)


Skomentuj

Wprowadź swoje dane lub kliknij jedną z tych ikon, aby się zalogować:

Logo WordPress.com

Komentujesz korzystając z konta WordPress.com. Log Out / Zmień )

Zdjęcie z Twittera

Komentujesz korzystając z konta Twitter. Log Out / Zmień )

Facebook photo

Komentujesz korzystając z konta Facebook. Log Out / Zmień )

Google+ photo

Komentujesz korzystając z konta Google+. Log Out / Zmień )

Connecting to %s

 
%d blogerów lubi to: