[2002-01-20] BIG DAY OUT Gold Coast, Southport Parklands, Australia [cam mix 2 sources] 2,12 GB

Video: 1280×720 [blueV_640p+orangeV_480p]
Audio: blueV_640p+orangeV_480p
Duration: 38:42
Rip: Dmytro1005 [Blue „V”], ???[Orange „V”]
Montage: NomadSPG
size: 2,12 GB
note: lossy sourced but its great multicam
setlist:

01. PRISON SONG*
02. WAR?*
03. JET PILOT*
04. X*
05. SUGGESTIONS
06. PSYCHO
07. CHOP SUEY!
08. MIND
09. BOUNCE
10. AERIALS
11. NEEDLES
12. DEER DANCE
13. TOXICITY
14. GOODBYE BLUE SKY (pink floyd cover)
15. SUITE-PEE
16. SUGAR
*(not available / never recorded)

Video
ID                               : 2
Format                           : VC-1
Format profile                   : MP@HL
Codec ID                         : WMV3
Codec ID/Info                    : Windows Media Video 9
Codec ID/Hint                    : WMV3
Description of the codec         : Windows Media Video 9 – Professional
Duration                         : 38mn 41s
Bit rate mode                    : Variable
Bit rate                         : 7 562 Kbps
Width                            : 1 280 pixels
Height                           : 720 pixels
Display aspect ratio             : 16:9
Frame rate                       : 25.000 fps
Bit depth                        : 8 bits
Scan type                        : Progressive
Compression mode                 : Lossy
Bits/(Pixel*Frame)               : 0.328
Stream size                      : 2.04 GiB (96%)
Language                         : English

Audio
ID                               : 1
Format                           : WMA
Format version                   : Version 2
Codec ID                         : 161
Codec ID/Info                    : Windows Media Audio
Description of the codec         : Windows Media Audio 9.2 – VBR Quality 98, 44 kHz, stereo 1-pass VBR
Duration                         : 38mn 41s
Bit rate mode                    : Variable
Bit rate                         : 274 Kbps
Channel(s)                       : 2 channels
Sampling rate                    : 44.1 KHz
Bit depth                        : 16 bits
Stream size                      : 75.7 MiB (3%)
Language                         : English

https://lh5.googleusercontent.com/-IQxhpDjV_HY/UC4y_K-ajAI/AAAAAAAAFIk/Q26lnE7DzZY/s800/shot0001.pnghttps://lh3.googleusercontent.com/-ihDaw_FSpHQ/UC4zG-ZxMsI/AAAAAAAAFI0/DO_vQ2kw1Ew/s800/shot0003.png

https://lh3.googleusercontent.com/-Mg3BD5XPLjg/UC4zBxkp47I/AAAAAAAAFIs/K9fQOMrrGTA/s800/shot0004.pnghttps://lh3.googleusercontent.com/-5GwMUPU5QB8/UC4zPAZgc9I/AAAAAAAAFI8/m2FV830R6dQ/s800/shot0005.png
https://lh3.googleusercontent.com/-zqjgtZqkTE0/UC4zS-P1FSI/AAAAAAAAFJE/1siTrU0TIs8/s800/shot0006.pnghttps://lh4.googleusercontent.com/-eg2X6DhNMPE/UC4zWw-q7II/AAAAAAAAFJM/0vDu0XlfV38/s800/shot0007.png

Reklamy

Skomentuj

Wprowadź swoje dane lub kliknij jedną z tych ikon, aby się zalogować:

Logo WordPress.com

Komentujesz korzystając z konta WordPress.com. Wyloguj / Zmień )

Zdjęcie z Twittera

Komentujesz korzystając z konta Twitter. Wyloguj / Zmień )

Zdjęcie na Facebooku

Komentujesz korzystając z konta Facebook. Wyloguj / Zmień )

Zdjęcie na Google+

Komentujesz korzystając z konta Google+. Wyloguj / Zmień )

Connecting to %s

 
%d blogerów lubi to: