[2001-07-29] Yuzawa, Japan – Naeba Ski Resort (Green Stage)1,56 GB

———————————————————————————
System Of A Down – 2001 Fuji Rock Festival
———————————————————————————

Artist: System Of A Down
Date: July 29th, 2001
Venue: Naeba Ski Resort [Green Stage]
Location: Yuzawa, Japan
File Type: DVD
File Size: 1.55GB
File Length: 54:43
Video Resolution: 720×480 (16:9 Letterboxed)
Source: PRO#1b

Lineup:
Daron Malakian: Guitar, Backing Vocals
John Dolmayan: Drums
Shavo Odadjian: Bass, Backing Vocals
Serj Tankian: Vocals

Other Performers (Green Stage):
– Brahman
– Dry & Heavy
– Xzibit
– Tool
– Eminem (with D12)
– Others?

Setlist:
1. Drugs
2. War?
3. Jet Pilot
4. Prison Song
5. Know
6. Needles
7. Suggestions
8. Psycho
9. Chop Suey!
10. Bounce
11. Soil
12. Aerials
13. Science
14. Toxicity
15. Suite-Pee
16. Unknown Song #1
17. Sugar

Notes:
– Performing at the 2001 ‚Fuji Rock Festival’.
– Daron sings part of „Drugs” in Japanese (or added completely different vocals?).
– First known performances for „Jet Pilot”, „Needles”, „Chop Suey!”, „Aerials”, and „Science”.
– Serj does not play guitar on „Aerials”
– Daron plays a few notes of the Scorpions song „Coming Home” before „Science”.
– „Suite-Pee” features an extended guitar intro.
– During the end of „Sugar”, Daron drops his guitar and attempts to jump into the crowd.

PLEASE DO NOT SELL OR ENCODE TO MPG
—————————————————————————————————————————————————-
For more on this show, go to:
http://systemofadownlive.webs.com/07292001.htm
—————————————————————————————————————————————————-

Video
ID                               : 224 (0xE0)
Format                           : MPEG Video
Format version                   : Version 2
Format profile                   : Main@Main
Format settings, BVOP            : No
Format settings, Matrix          : Default
Duration                         : 35mn 9s
Bit rate mode                    : Variable
Bit rate                         : 3 736 Kbps
Width                            : 720 pixels
Height                           : 480 pixels
Display aspect ratio             : 4:3
Frame rate                       : 29.970 fps
Standard                         : NTSC
Color space                      : YUV
Chroma subsampling               : 4:2:0
Bit depth                        : 8 bits
Compression mode                 : Lossy
Bits/(Pixel*Frame)               : 0.361
Stream size                      : 939 MiB (92%)
Writing library                  : TMPGEnc 2.524.63.181

Audio
ID                               : 128 (0x80)
Format                           : AC-3
Format/Info                      : Audio Coding 3
Mode extension                   : CM (complete main)
Duration                         : 35mn 8s
Bit rate mode                    : Constant
Bit rate                         : 256 Kbps
Channel(s)                       : 2 channels
Channel positions                : Front: L R
Sampling rate                    : 48.0 KHz
Bit depth                        : 16 bits
Compression mode                 : Lossy
Delay relative to video          : -70ms
Stream size                      : 64.4 MiB (6%)

https://lh4.googleusercontent.com/-fzoqxR87J0o/UOhhT1egm-I/AAAAAAAAFio/Y6NswEi4LyM/s640/System%2520of%2520a%2520Down%2520-%252007-29-2001%2520Set%2520Times.jpg
https://lh4.googleusercontent.com/-S1qmMziykKs/UOhhjh2NX6I/AAAAAAAAFiw/h9o2W2hP1lk/s640/shot0001.pnghttps://lh4.googleusercontent.com/--twgByXr9j8/UOhhkeiOy8I/AAAAAAAAFi0/Q_BVIDH3Etk/s640/shot0003.png
https://lh3.googleusercontent.com/-p_LdVZDwPls/UOhhxtIAi_I/AAAAAAAAFjA/jdBSlyOgyTw/s640/shot0004.pnghttps://lh4.googleusercontent.com/-4AcLvZClNJU/UOhiBkeJ_9I/AAAAAAAAFjI/YgPT2_JpkuI/s640/shot0006.png
https://lh5.googleusercontent.com/-9qxex5HnPTI/UOhiBw4RP7I/AAAAAAAAFjM/8V86yo17b7c/s640/shot0007.pnghttps://lh5.googleusercontent.com/-VK9x2m634YM/UOhiG6Y9bzI/AAAAAAAAFjY/E7Zxnx1i4HU/s640/shot0010.png


Skomentuj

Wprowadź swoje dane lub kliknij jedną z tych ikon, aby się zalogować:

Logo WordPress.com

Komentujesz korzystając z konta WordPress.com. Wyloguj / Zmień )

Zdjęcie z Twittera

Komentujesz korzystając z konta Twitter. Wyloguj / Zmień )

Facebook photo

Komentujesz korzystając z konta Facebook. Wyloguj / Zmień )

Google+ photo

Komentujesz korzystając z konta Google+. Wyloguj / Zmień )

Connecting to %s

 
%d blogerów lubi to: