[1995-09-12] Black Sabbath – Wroclaw, Poland 3,13 GB

Black Sabbath
1995-09-12 Hala Ludowa Wrocław, Poland

GALLERY (Click Here)

Format: DVD PAL
Camera: Handcam
Lenght: 94:25 min
Size: 3,13 GB
Lineage: Unknown gen AUD video > DVD PAL
Menu: No
Chapters: Yes (every 5 min)

Line-up:
Tony Martin – Vocals
Tony Iommi – Guitar
Neil Murray – Bass
Bobby Rondinelli – Drums
Geoff Nicholls – Keyboards

Setlist:
Ave Satani + The Gates Of Hell (Intro Tape)
Children Of The Grave
Neon Knights
The Shining
The Wizard
Get A Grip
Headless Cross
Rusty Angels
Bass Solo
When Death Calls
Sabbath Bloody Sabbath
Can’t Get Close Enough (not included)*
War Pigs
The Mob Rules
Black Sabbath
Heaven And Hell
Iron Man
Paranoid

* ‚Can’t Get Close Enough’ was either not filmed or removed from the video. After ‚Sabbath Bloody Sabbath’ Tony Martin says that now they will play a track from the album ‚Forbidden’, but then a cut occurs, and ‚War Pigs’ starts.

MediaInfo (for the file ‚VTS_01_2.VOB’):

General
Format                           : MPEG-PS
File size                        : 1 024 MiB
Duration                         : 10s 793ms
Overall bit rate mode            : Variable
Overall bit rate                 : 796 Mbps

Video
ID                               : 224 (0xE0)
Format                           : MPEG Video
Format version                   : Version 2
Format profile                   : Main@Main
Format settings, BVOP            : Yes
Format settings, Matrix          : Custom
Format settings, GOP             : M=3, N=12
Duration                         : 10s 249ms
Bit rate mode                    : Variable
Bit rate                         : 780 Mbps
Maximum bit rate                 : 8 760 Kbps
Width                            : 720 pixels
Height                           : 576 pixels
Display aspect ratio             : 4:3
Frame rate                       : 25.000 fps
Standard                         : PAL
Color space                      : YUV
Chroma subsampling               : 4:2:0
Bit depth                        : 8 bits
Scan type                        : Interlaced
Scan order                       : Top Field First
Compression mode                 : Lossy
Bits/(Pixel*Frame)               : 75.211
Stream size                      : 953 MiB (93%)

Audio
ID                               : 189 (0xBD)-128 (0x80)
Format                           : AC-3
Format/Info                      : Audio Coding 3
Mode extension                   : CM (complete main)
Muxing mode                      : DVD-Video
Duration                         : 10s 793ms
Bit rate mode                    : Constant
Bit rate                         : 256 Kbps
Channel(s)                       : 2 channels
Channel positions                : Front: L R
Sampling rate                    : 48.0 KHz
Bit depth                        : 16 bits
Compression mode                 : Lossy
Delay relative to video          : -414ms
Stream size                      : 337 KiB (0%)

Reklamy

Skomentuj

Wprowadź swoje dane lub kliknij jedną z tych ikon, aby się zalogować:

Logo WordPress.com

Komentujesz korzystając z konta WordPress.com. Wyloguj / Zmień )

Zdjęcie z Twittera

Komentujesz korzystając z konta Twitter. Wyloguj / Zmień )

Zdjęcie na Facebooku

Komentujesz korzystając z konta Facebook. Wyloguj / Zmień )

Zdjęcie na Google+

Komentujesz korzystając z konta Google+. Wyloguj / Zmień )

Connecting to %s

 
%d blogerów lubi to: