[2012-10-24] Serj Tankian- Prague, Czech Republic – Lucerna Music Hall (Source 1) MASTER 15,9 GB

Format: MTS Materfile Sony HDR-TD20VE 3D
Camera: Handcam (Right)
Lenght: 1h 25mn
Size: 15,9 GB (bajtów: 17 131 929 600)

setlist:

01. FIGURE IT OUT
02. CORNUCOPIA
03. FEED US
04. SKY IS OVER
05. BABY (with Wings of Summer intro)
06. BUTTERFLY
07. HARAKIRI
08. ELECT THE DEAD (with extended intro)
09. OCCUPIED TEARS
10. THE UNTHINKING MAJORITY
11. HONKING ANTELOPE
12. CHING CHIME (with Andrew Kzirian)
13. LIE LIE LIE
14. PRAISE THE LORD AND PASS THE AMMUNITION
15. SAVING US
16. BEETHOVEN’S CUNT
17. EMPTY WALLS

encore:

18. LEFT OF CENTER
19. AERIALS (System Of A Down song)

http://www.youtube.com/watch?v=kwmKfdLuUX4

General
ID : 0 (0x0)
Complete name :Serj_Tankian_Lucerna_2012_NMD.MTS
Format : BDAV
Format/Info : Blu-ray Video
File size : 16.0 GiB
Duration : 1h 25mn
Overall bit rate : 26.8 Mbps
Maximum Overall bit rate : 28.0 Mbps

Video
ID : 4113 (0x1011)
Menu ID : 1 (0x1)
Format : AVC
Format/Info : Advanced Video Codec
Format profile : High@L4.2
Format settings, CABAC : Yes
Format settings, ReFrames : 2 frames
Format settings, GOP : M=1, N=24
Codec ID : 27
Duration : 1h 25mn
Bit rate mode : Variable
Bit rate : 25.2 Mbps
Maximum bit rate : 26.0 Mbps
Width : 1 920 pixels
Height : 1 080 pixels
Display aspect ratio : 16:9
Frame rate : 50.000 fps
Color space : YUV
Chroma subsampling : 4:2:0
Bit depth : 8 bits
Scan type : Progressive
Bits/(Pixel*Frame) : 0.244
Stream size : 15.0 GiB (94%)

Audio
ID : 4352 (0x1100)
Menu ID : 1 (0x1)
Format : AC-3
Format/Info : Audio Coding 3
Mode extension : CM (complete main)
Codec ID : 129
Duration : 1h 25mn
Bit rate mode : Constant
Bit rate : 448 Kbps
Channel(s) : 6 channels
Channel positions : Front: L C R, Side: L R, LFE
Sampling rate : 48.0 KHz
Bit depth : 16 bits
Compression mode : Lossy
Stream size : 273 MiB (2%)


Skomentuj

Wprowadź swoje dane lub kliknij jedną z tych ikon, aby się zalogować:

Logo WordPress.com

Komentujesz korzystając z konta WordPress.com. Wyloguj / Zmień )

Zdjęcie z Twittera

Komentujesz korzystając z konta Twitter. Wyloguj / Zmień )

Facebook photo

Komentujesz korzystając z konta Facebook. Wyloguj / Zmień )

Google+ photo

Komentujesz korzystając z konta Google+. Wyloguj / Zmień )

Connecting to %s

 
%d blogerów lubi to: