[2015-09-24] Rock in Rio, Cidade do Rock, Rio de Janeiro, Brazil [Webstream] 1,05GB

Format: Mp4
Camera: Proshot
Lenght: 1h 34mn
Size: 1,05 GB

GALLERY (Click Here)

Setlist:
1. I-E-A-I-A-I-O
2. Suite-Pee (Abbreviated)
3. Attack
4. Prison Song
5. Know
6. Aerials
7. Soldier Side – Intro
8. B.Y.O.B.
9. Soil
10. Darts
11. Radio/Video
12. Hypnotize
13. Temper
14. CUBErt
15. Needles
16. Deer Dance
17. Bounce
18. Suggestions
19. Physical (Olivia Newton-John cover)
20. Psycho
21. Chop Suey!
22. Lonely Day
23. Question!
24. Lost In Hollywood
25. Vicinity Of Obscenity
26. Forest
27. Cigaro
28. Toxicity feat. Chino Moreno
29. Sugar

Video
ID                                       : 1
Format                                   : AVC
Format/Info                              : Advanced Video Codec
Format profile                           : Baseline@L3.0
Format settings, CABAC                   : No
Format settings, ReFrames                : 3 frames
Codec ID                                 : avc1
Codec ID/Info                            : Advanced Video Coding
Duration                                 : 1h 34mn
Bit rate mode                            : Constant
Bit rate                                 : 1 500 Kbps / 1 500 Kbps
Maximum bit rate                         : 1 637 Kbps
Width                                    : 1 280 pixels
Height                                   : 720 pixels
Display aspect ratio                     : 16:9
Frame rate mode                          : Constant
Frame rate                               : 25.000 fps
Color space                              : YUV
Chroma subsampling                       : 4:2:0
Bit depth                                : 8 bits
Scan type                                : Progressive
Bits/(Pixel*Frame)                       : 0.065
Stream size                              : 1 008 MiB (94%)
Title                                    : Telestream Inc. Telestream Media Framework – Release Enterprise 2015.75.153041
Writing library                          : x264 core 138
Encoding settings                        : cabac=0 / ref=3 / deblock=1:0:0 / analyse=0x1:0x111 / me=hex / subme=7 / psy=1 / psy_rd=1.00:0.00 / mixed_ref=1 / me_range=16 / chroma_me=1 / trellis=1 / 8x8dct=0 / cqm=0 / deadzone=21,11 / fast_pskip=1 / chroma_qp_offset=-2 / threads=48 / lookahead_threads=5 / sliced_threads=0 / nr=0 / decimate=1 / interlaced=0 / bluray_compat=0 / constrained_intra=0 / bframes=0 / weightp=0 / keyint=250 / keyint_min=25 / scenecut=40 / intra_refresh=0 / rc_lookahead=40 / rc=cbr / mbtree=1 / bitrate=1500 / ratetol=1.0 / qcomp=0.60 / qpmin=0 / qpmax=69 / qpstep=4 / vbv_maxrate=1500 / vbv_bufsize=1400 / nal_hrd=cbr / filler=1 / ip_ratio=1.40 / aq=1:1.00
Encoded date                             : UTC 2015-09-26 20:54:39
Tagged date                              : UTC 2015-09-26 20:54:39

Audio
ID                                       : 2
Format                                   : AAC
Format/Info                              : Advanced Audio Codec
Format profile                           : LC
Codec ID                                 : 40
Duration                                 : 1h 34mn
Source duration                          : 1h 34mn
Bit rate mode                            : Constant
Bit rate                                 : 93.6 Kbps
Nominal bit rate                         : 128 Kbps
Channel(s)                               : 2 channels
Channel positions                        : Front: L R
Sampling rate                            : 44.1 KHz
Compression mode                         : Lossy
Stream size                              : 62.9 MiB (6%)
Source stream size                       : 62.9 MiB (6%)
Title                                    : Telestream Inc. Telestream Media Framework – Release Enterprise 2015.75.153041
Language                                 : Spanish
Encoded date                             : UTC 2015-09-26 20:54:39
Tagged date                              : UTC 2015-09-26 20:54:39

Reklamy

 
%d blogerów lubi to: